Archive for December, 2011

Immortals 2011

Posted: December 10, 2011 in Hollywood, Movies
Tags: , ,

Immortal 2011

Format : AVI
File size : 1.46 GiB
Duration : 1h 31mn
Overall bit rate :1787 Kbps

Rating : 6.6/10.

 

Video

Format : MPEG-4 Visual
Format profile : Advanced Simple@L5
Codec ID/Hint : XviD
Duration : 1h 42mn
Bit rate : 1787 Kbps
Width : 720 pixels
Height : 320 pixels
Display aspect ratio : 2.25:1
Frame rate : 23.976 fps
Bit depth : 8 bits
Scan type : Progressive
Bits/(Pixel*Frame) : 0.323
Stream size : 1.28 GiB (90%)

Audio

Format : MPEG Audio
Codec ID/Hint : MP3
Duration : 1h 42mn
Bit rate mode : Constant
Bit rate : 192 Kbps
Channel(s) : 2 channels
Sampling rate : 48.0 KHz
Stream size : 141 MiB (10%)

Download Torrent click here.

WATCH THE TRAILER OF IMMORTALS 2011

Advertisements

Final Destination 5 (2011)

Format : AVI
File size : 1.46 GiB
Duration : 1h 31mn
Overall bit rate : 2274 Kbps

Rating : 6.3/10.

Video

Format : MPEG-4 Visual
Format profile : AdvancedSimple@L5
Codec ID/Hint : XviD
Duration : 1h 31mn
Bit rate : 1817 Kbps
Width : 720 pixels
Height : 304 pixels
Display aspect ratio : 2.35:1
Frame rate : 23.976 fps
Resolution : 24 bits
Scan type : Progressive
Bits/(Pixel*Frame) : 0.346
Stream size : 1.17 GiB (80%)

Audio

Format : AC-3
Format/Info : Audio Coding 3
Duration : 1h 31mn
Bit rate mode : Constant
Bit rate : 448 Kbps
Channel(s) : 6 channels
Channel positions : Front: L C R, Surround: L R, LFE

Download Torrent click here.

WATCH THE TRAILER OF FINAL DESTINATION 5

Fright Night (2011)

Posted: December 9, 2011 in Hollywood, Movies
Tags:

Fright Night (2011)

Format: MPEG-4
File size : 2.54 GiB
Duration : 1h 45mn
Overall bit rate : 3426 Kbps

Rating : 6.7/10.

Video

Format : AVC
Format/Info : Advanced Video Codec
Codec ID/Info : Advanced Video Coding
Duration : 1h 45mn
Bit rate : 3000 Kbps
Maximum bit rate : 17.2 Mbps
Width : 1280 pixels
Height : 720 pixels
Display aspect ratio : 16:9
Frame rate : 23.976 fps
Bit depth : 8 bits
Bits/(Pixel*Frame) : 0.136
Stream size : 2.20 GiB (87%)

Audio

Format : AAC
Format/Info : Advanced Audio Codec
Format version : Version 4
Format profile : LC
Duration : 1h 45mn
Bit rate mode : Variable
Bit rate : 444 Kbps
Maximum bit rate : 564 Kbps
Channel(s) : 6 channels
Channel positions : Front: L C R, Side: L R, LFE

Download the torrent click here.

WATCH THE TRAILER OF FRIGHT NIGHT (2011)

In Time (2011)

Posted: December 4, 2011 in Hollywood, Movies
Tags: ,

In Time (2011)

Format : AVI
File size : 817 MiB
Duration : 1h 44mn
Overall bit rate : 1 091 Kbps

Rating  : 6.7/10.

Video

Format : MPEG-4 Visual
Codec ID : XVID
Duration : 1h 44mn
Bit rate : 953 Kbps
Width : 720 pixels
Height : 304 pixels
Display aspect ratio : 2.35:1
Frame rate : 25.000 fps

Audio

Format : AC-3
Format/Info : Audio Coding 3
Duration : 1h 44mn
Bit rate mode : Constant
Bit rate : 128 Kbps
Channel(s) : 2 channels
Channel positions : Front: L R
Bit depth : 16 bits

Download Torrent click here.