Posts Tagged ‘Immortal 2011’

Immortals 2011

Posted: December 10, 2011 in Hollywood, Movies
Tags: , ,

Immortal 2011

Format : AVI
File size : 1.46 GiB
Duration : 1h 31mn
Overall bit rate :1787 Kbps

Rating : 6.6/10.

 

Video

Format : MPEG-4 Visual
Format profile : Advanced Simple@L5
Codec ID/Hint : XviD
Duration : 1h 42mn
Bit rate : 1787 Kbps
Width : 720 pixels
Height : 320 pixels
Display aspect ratio : 2.25:1
Frame rate : 23.976 fps
Bit depth : 8 bits
Scan type : Progressive
Bits/(Pixel*Frame) : 0.323
Stream size : 1.28 GiB (90%)

Audio

Format : MPEG Audio
Codec ID/Hint : MP3
Duration : 1h 42mn
Bit rate mode : Constant
Bit rate : 192 Kbps
Channel(s) : 2 channels
Sampling rate : 48.0 KHz
Stream size : 141 MiB (10%)

Download Torrent click here.

WATCH THE TRAILER OF IMMORTALS 2011